Best Movie Forum
Registrujte se na Best Movie Forumu, čeka vas mnogo zanimljivih i korisnih stvari.

Uzivaj u druzenju,gledanju i skidanju stranih filmova i serija...mozete naci i veliki broj pc programa za download... Ucestvujte aktivno na forumu (pisite, pocnite nove teme...), jer se aktivnost nagradjuje!!!

Editujte svoj profil jer se svake nedelje proglasava ime za najlepseg i najsasavijeg profila na forumu! Smile

REGISTRACIJA je veoma brza i jednostavna, samo unesite podatke, ULOGUJTE se i uživajte......

Vaš BestMovie Tim!!!


Best Movie Forum - Filmovi, Serije, Igre...
 
PrijemKalendarGalerijaFAQ - Često Postavljana PitanjaTražiLista članovaKorisničke grupeRegistruj sePristupi
Dobrodosli na Best Movie Forum!!! Uzivaj u druzenju,gledanju i skidanju stranih filmova i serija...budite aktivni jer se aktivnost nagradjuje!!! Editujte svoj profil jer se svake nedelje proglasava ime za najlepseg i najsasavijeg profila na forumu! Smile Registrujte se na Best Movie Forumu, čeka vas mnogo zanimljivih i korisnih stvari!!!

Share | 
 

 Battleground (2012) BRRip

Pogledaj prethodnu temu Pogledaj sledeću temu Ići dole 
AutorPoruka
Pesoholicar
Admin
Admin
avatar

Broj poruka : 1941
Points : 8608
Datum upisa : 04.07.2011
Godina : 32
Lokacija : Leskovac

PočaljiNaslov: Battleground (2012) BRRip   Pon Jan 16, 2012 2:47 am

Battleground (2012) BRRip XviD AC3-NYDIC



Kod:
General
Complete name: Battleground.2012.480p.BRRip.XviD.AC3-NYDIC.avi
Format : AVI
Format/Info: Audio Video Interleave
File size: 1.36 GiB
Duration : 1h 29mn
Overall bit rate : 2 187 Kbps
Writing application: VirtualDubMod 1.5.10.2 (build 2540/release)
Writing library: VirtualDubMod build 2540/release

Video
ID : 0
Format : MPEG-4 Visual
Format profile : Advanced Simple@L5
Format settings, BVOP: 2
Format settings, QPel: No
Format settings, GMC : No warppoints
Format settings, Matrix: Default (H.263)
Muxing mode: Packed bitstream
Codec ID : XVID
Codec ID/Hint: XviD
Duration : 1h 29mn
Bit rate : 1 729 Kbps
Width: 720 pixels
Height : 304 pixels
Display aspect ratio : 2.35:1
Frame rate : 23.976 fps
Color space: YUV
Chroma subsampling : 4:2:0
Bit depth: 8 bits
Scan type: Progressive
Compression mode : Lossy
Bits/(Pixel*Frame) : 0.330
Stream size: 1.08 GiB (79%)
Writing library: XviD 63

Audio
ID : 1
Format : AC-3
Format/Info: Audio Coding 3
Mode extension : CM (complete main)
Codec ID : 2000
Duration : 1h 29mn
Bit rate mode: Constant
Bit rate : 448 Kbps
Channel(s) : 2 channels
Channel positions: Front: L R
Sampling rate: 48.0 KHz
Bit depth: 16 bits
Compression mode : Lossy
Stream size: 285 MiB (20%)
Alignment: Split accross interleaves
Interleave, duration : 42 ms (1.00 video frame)
Interleave, preload duration : 500 ms
Kod:
http://www.imdb.com/title/tt1754506/



Download:
Kod:

http://www.fileserve.com/file/757Huvx/BaTTleGround.2010.BRRip.cW.part1.rar
http://www.fileserve.com/file/uS6fmvT/BaTTleGround.2010.BRRip.cW.part2.rar

http://www.filesonic.com/file/JL5KRi7/BaTTleGround.2010.BRRip.cW.part1.rar
http://www.filesonic.com/file/qLiA78b/BaTTleGround.2010.BRRip.cW.part2.rar

http://www.filejungle.com/f/QjUAZ2/BaTTleGround.2010.BRRip.cW.part1.rar
http://www.filejungle.com/f/QA62du/BaTTleGround.2010.BRRip.cW.part2.rar
Download Singl Link:
Kod:

http://www.fileserve.com/file/knnXzUr/BaTTleG.SiNgL.cW.rar
http://www.filesonic.com/file/nu0c4xj/BaTTleG.SiNgL.cW.rar
http://www.filejungle.com/f/ZJWUZU/BaTTleG.SiNgL.cW.rar

_________________
[You must be registered and logged in to see this link.]
"You wanna play?"
Nazad na vrh Ići dole
Pogledaj profil korisnika http://bestmovie.serbianforum.info
 
Battleground (2012) BRRip
Pogledaj prethodnu temu Pogledaj sledeću temu Nazad na vrh 
Strana 1 od 1
 Similar topics
-
» NASA: Nema smaka sveta 21.12.2012.
» Europsko rukometno prvenstvo u Srbiji 2012
» NAJBOLJI FILMOVI 2012: Ovih 25 filmova svakako morate pogledati!
» Moda ulice
» Najbolji Spotovi

Dozvole ovog foruma:Ne možete odgovarati na teme u ovom forumu
Best Movie Forum :: Filmovi :: Filmovi po kategorijama! :: + Horror --
Skoči na: