Best Movie Forum
Registrujte se na Best Movie Forumu, čeka vas mnogo zanimljivih i korisnih stvari.

Uzivaj u druzenju,gledanju i skidanju stranih filmova i serija...mozete naci i veliki broj pc programa za download... Ucestvujte aktivno na forumu (pisite, pocnite nove teme...), jer se aktivnost nagradjuje!!!

Editujte svoj profil jer se svake nedelje proglasava ime za najlepseg i najsasavijeg profila na forumu! Smile

REGISTRACIJA je veoma brza i jednostavna, samo unesite podatke, ULOGUJTE se i uživajte......

Vaš BestMovie Tim!!!


Best Movie Forum - Filmovi, Serije, Igre...
 
PrijemKalendarGalerijaČesto Postavljana PitanjaTražiLista članovaKorisničke grupeRegistruj sePristupi
Dobrodosli na Best Movie Forum!!! Uzivaj u druzenju,gledanju i skidanju stranih filmova i serija...budite aktivni jer se aktivnost nagradjuje!!! Editujte svoj profil jer se svake nedelje proglasava ime za najlepseg i najsasavijeg profila na forumu! Smile Registrujte se na Best Movie Forumu, čeka vas mnogo zanimljivih i korisnih stvari!!!

Delite | 
 

 The Descendants (2011) DVDScr

Pogledaj prethodnu temu Pogledaj sledeću temu Ići dole 
AutorPoruka
Pesoholicar
Admin
Admin
avatar

Broj poruka : 1941
Points : 8778
Datum upisa : 04.07.2011
Godina : 32
Lokacija : Leskovac

PočaljiNaslov: The Descendants (2011) DVDScr   Pon Jan 16, 2012 1:52 am

The Descendants (2011) SCREENER XviD – ZOMBiES



Citat :
General
Complete name: The.Descendants.2011.SCREENER.XviD-ZOMBiES.avi
Format : AVI
Format/Info: Audio Video Interleave
File size: 906 MiB
Duration : 1h 55mn
Overall bit rate : 1 097 Kbps
Writing library: VirtualDub build 32842/release

Video
ID : 0
Format : MPEG-4 Visual
Format profile : Advanced Simple@L5
Format settings, BVOP: 2
Format settings, QPel: No
Format settings, GMC : No warppoints
Format settings, Matrix: Default (H.263)
Muxing mode: Packed bitstream
Codec ID : XVID
Codec ID/Hint: XviD
Duration : 1h 55mn
Bit rate : 959 Kbps
Width: 718 pixels
Height : 360 pixels
Display aspect ratio : 1.994
Frame rate : 25.000 fps
Color space: YUV
Chroma subsampling : 4:2:0
Bit depth: 8 bits
Scan type: Progressive
Compression mode : Lossy
Bits/(Pixel*Frame) : 0.148
Stream size: 792 MiB (87%)
Writing library: XviD 64

Audio
ID : 1
Format : MPEG Audio
Format version : Version 1
Format profile : Layer 3
Mode : Joint stereo
Codec ID : 55
Codec ID/Hint: MP3
Duration : 1h 55mn
Bit rate mode: Constant
Bit rate : 128 Kbps
Channel(s) : 2 channels
Sampling rate: 48.0 KHz
Compression mode : Lossy
Stream size: 106 MiB (12%)
Alignment: Split accross interleaves
Interleave, duration : 40 ms (1.00 video frame)
Interleave, preload duration : 500 ms
Kod:
http://imdb.com/title/tt1033575/



DOWNLOAD:
Kod:

http://www.fileserve.com/file/GbPp6V6/
http://www.filesonic.com/file/X2kquN3/Descendants.2011.cW.rar
http://www.filejungle.com/f/UTV6uu/Descendants.2011.cW.rar

_________________
[You must be registered and logged in to see this link.]
"You wanna play?"
Nazad na vrh Ići dole
Pogledaj profil korisnika http://bestmovie.serbianforum.info
 
The Descendants (2011) DVDScr
Pogledaj prethodnu temu Pogledaj sledeću temu Nazad na vrh 
Strana 1 od 1
 Similar topics
-
» Godišnji horoskop za 2011
» Lavovi
» Psiho-test tobogan
» Verujete li u horoskop?
» Kuda idemo...........

Dozvole ovog foruma:Ne možete odgovarati na teme u ovom forumu
Best Movie Forum :: Filmovi :: Filmovi po kategorijama! :: + Comedy --
Skoči na: