Best Movie Forum
Registrujte se na Best Movie Forumu, čeka vas mnogo zanimljivih i korisnih stvari.

Uzivaj u druzenju,gledanju i skidanju stranih filmova i serija...mozete naci i veliki broj pc programa za download... Ucestvujte aktivno na forumu (pisite, pocnite nove teme...), jer se aktivnost nagradjuje!!!

Editujte svoj profil jer se svake nedelje proglasava ime za najlepseg i najsasavijeg profila na forumu! Smile

REGISTRACIJA je veoma brza i jednostavna, samo unesite podatke, ULOGUJTE se i uživajte......

Vaš BestMovie Tim!!!


Best Movie Forum - Filmovi, Serije, Igre...
 
PrijemKalendarGalerijaČesto Postavljana PitanjaTražiLista članovaKorisničke grupeRegistruj sePristupi
Dobrodosli na Best Movie Forum!!! Uzivaj u druzenju,gledanju i skidanju stranih filmova i serija...budite aktivni jer se aktivnost nagradjuje!!! Editujte svoj profil jer se svake nedelje proglasava ime za najlepseg i najsasavijeg profila na forumu! Smile Registrujte se na Best Movie Forumu, čeka vas mnogo zanimljivih i korisnih stvari!!!

Delite | 
 

 Bangkok Bound (2010) DVDRip

Pogledaj prethodnu temu Pogledaj sledeću temu Ići dole 
AutorPoruka
Pesoholicar
Admin
Admin
avatar

Broj poruka : 1941
Points : 8778
Datum upisa : 04.07.2011
Godina : 32
Lokacija : Leskovac

PočaljiNaslov: Bangkok Bound (2010) DVDRip   Čet Dec 22, 2011 10:15 pm

Bangkok Bound (2010) DVDRip XviD-SPRiNTER
File Size: 700,89 MiB[/b]



Kod:
General
Complete name: sprinter-bangkokbound.avi
Format : AVI
Format/Info: Audio Video Interleave
File size: 701 MiB
Duration : 1h 29mn
Overall bit rate mode: Variable
Overall bit rate : 1 101 Kbps

Video
ID : 0
Format : MPEG-4 Visual
Format profile : Advanced Simple@L5
Format settings, BVOP: 2
Format settings, QPel: No
Format settings, GMC : No warppoints
Format settings, Matrix: Default (H.263)
Codec ID : XVID
Codec ID/Hint: XviD
Duration : 1h 29mn
Bit rate : 1 022 Kbps
Width: 576 pixels
Height : 320 pixels
Display aspect ratio : 16:9
Frame rate : 25.000 fps
Color space: YUV
Chroma subsampling : 4:2:0
Bit depth: 8 bits
Scan type: Progressive
Compression mode : Lossy
Bits/(Pixel*Frame) : 0.222
Stream size: 651 MiB (93%)
Writing library: XviD 61

Audio
ID : 1
Format : MPEG Audio
Format version : Version 1
Format profile : Layer 3
Codec ID : 55
Codec ID/Hint: MP3
Duration : 1h 29mn
Bit rate mode: Variable
Bit rate : 65.9 Kbps
Minimum bit rate : 40.0 Kbps
Channel(s) : 1 channel
Sampling rate: 48.0 KHz
Compression mode : Lossy
Stream size: 42.0 MiB (6%)
Alignment: Aligned on interleaves
Interleave, duration : 24 ms (0.60 video frame)
Interleave, preload duration : 367 ms
Writing library: LAME3.95
Encoding settings: -m m -V 5 -q 3 -lowpass 17 --vbr-old -b 40

Kod:
http://www.imdb.com/title/tt1356392/



Download:
Kod:
http://www.fileserve.com/file/UzCS6z8/
http://www.filesonic.com/file/4276081584
http://www.filejungle.com/f/PW9jhc/sprinter-bangkokbound.cW.rar

_________________
[You must be registered and logged in to see this link.]
"You wanna play?"
Nazad na vrh Ići dole
Pogledaj profil korisnika http://bestmovie.serbianforum.info
 
Bangkok Bound (2010) DVDRip
Pogledaj prethodnu temu Pogledaj sledeću temu Nazad na vrh 
Strana 1 od 1
 Similar topics
-
» Novi Pravopis srpskog jezika (2010)
» Predskazanja
» Vida Nenadic
» Najlepši tekstovi pesama
» Lapsusi - naši i tuđi

Dozvole ovog foruma:Ne možete odgovarati na teme u ovom forumu
Best Movie Forum :: Filmovi :: Filmovi po kategorijama! :: + Thriller --
Skoči na: