Best Movie Forum
Registrujte se na Best Movie Forumu, čeka vas mnogo zanimljivih i korisnih stvari.

Uzivaj u druzenju,gledanju i skidanju stranih filmova i serija...mozete naci i veliki broj pc programa za download... Ucestvujte aktivno na forumu (pisite, pocnite nove teme...), jer se aktivnost nagradjuje!!!

Editujte svoj profil jer se svake nedelje proglasava ime za najlepseg i najsasavijeg profila na forumu! Smile

REGISTRACIJA je veoma brza i jednostavna, samo unesite podatke, ULOGUJTE se i uživajte......

Vaš BestMovie Tim!!!


Best Movie Forum - Filmovi, Serije, Igre...
 
PrijemKalendarGalerijaČesto Postavljana PitanjaTražiLista članovaKorisničke grupeRegistruj sePristupi
Dobrodosli na Best Movie Forum!!! Uzivaj u druzenju,gledanju i skidanju stranih filmova i serija...budite aktivni jer se aktivnost nagradjuje!!! Editujte svoj profil jer se svake nedelje proglasava ime za najlepseg i najsasavijeg profila na forumu! Smile Registrujte se na Best Movie Forumu, čeka vas mnogo zanimljivih i korisnih stvari!!!

Delite | 
 

 Repo (2010) BDRip

Pogledaj prethodnu temu Pogledaj sledeću temu Ići dole 
AutorPoruka
Pesoholicar
Admin
Admin
avatar

Broj poruka : 1941
Points : 8778
Datum upisa : 04.07.2011
Godina : 32
Lokacija : Leskovac

PočaljiNaslov: Repo (2010) BDRip   Čet Dec 22, 2011 9:59 pm

Repo (2010) BDRip XViD-NOSCREENS
File Size: 700.91 MiB[/b]



Citat :
General
Complete name: noscreens-repo.xvid.avi
Format : AVI
Format/Info: Audio Video Interleave
File size: 701 MiB
Duration : 1h 36mn
Overall bit rate mode: Variable
Overall bit rate : 1 011 Kbps


Video
ID : 0
Format : MPEG-4 Visual
Format profile : Advanced Simple@L5
Format settings, BVOP: 2
Format settings, QPel: No
Format settings, GMC : No warppoints
Format settings, Matrix: Default (H.263)
Muxing mode: Packed bitstream
Codec ID : XVID
Codec ID/Hint: XviD
Duration : 1h 36mn
Bit rate : 868 Kbps
Width: 624 pixels
Height : 352 pixels
Display aspect ratio : 16:9
Frame rate : 23.976 fps
Color space: YUV
Chroma subsampling : 4:2:0
Bit depth: 8 bits
Scan type: Progressive
Compression mode : Lossy
Bits/(Pixel*Frame) : 0.165
Stream size: 602 MiB (86%)
Writing library: XviD 64

Audio
ID : 1
Format : MPEG Audio
Format version : Version 1
Format profile : Layer 3
Mode : Joint stereo
Mode extension : MS Stereo
Codec ID : 55
Codec ID/Hint: MP3
Duration : 1h 36mn
Bit rate mode: Variable
Bit rate : 128 Kbps
Channel(s) : 2 channels
Sampling rate: 48.0 KHz
Compression mode : Lossy
Stream size: 90.5 MiB (13%)
Alignment: Aligned on interleaves
Interleave, duration : 24 ms (0.58 video frame)
Interleave, preload duration : 135 ms
Writing library: LAME3.96r

Kod:
http://imdb.com/title/tt0887161/



Download:
Kod:

http://www.fileserve.com/file/YQM9hrA/
http://www.filesonic.com/file/4246843324
http://www.filejungle.com/f/HuTuGF/Repo.cW.rar

_________________
[You must be registered and logged in to see this link.]
"You wanna play?"
Nazad na vrh Ići dole
Pogledaj profil korisnika http://bestmovie.serbianforum.info
 
Repo (2010) BDRip
Pogledaj prethodnu temu Pogledaj sledeću temu Nazad na vrh 
Strana 1 od 1
 Similar topics
-
» Novi Pravopis srpskog jezika (2010)
» Predskazanja
» Vida Nenadic
» Najlepši tekstovi pesama
» Lapsusi - naši i tuđi

Dozvole ovog foruma:Ne možete odgovarati na teme u ovom forumu
Best Movie Forum :: Filmovi :: Filmovi po kategorijama! :: + Comedy --
Skoči na: