Best Movie Forum
Registrujte se na Best Movie Forumu, čeka vas mnogo zanimljivih i korisnih stvari.

Uzivaj u druzenju,gledanju i skidanju stranih filmova i serija...mozete naci i veliki broj pc programa za download... Ucestvujte aktivno na forumu (pisite, pocnite nove teme...), jer se aktivnost nagradjuje!!!

Editujte svoj profil jer se svake nedelje proglasava ime za najlepseg i najsasavijeg profila na forumu! Smile

REGISTRACIJA je veoma brza i jednostavna, samo unesite podatke, ULOGUJTE se i uživajte......

Vaš BestMovie Tim!!!


Best Movie Forum - Filmovi, Serije, Igre...
 
PrijemKalendarGalerijaČesto Postavljana PitanjaTražiLista članovaKorisničke grupeRegistruj sePristupi
Dobrodosli na Best Movie Forum!!! Uzivaj u druzenju,gledanju i skidanju stranih filmova i serija...budite aktivni jer se aktivnost nagradjuje!!! Editujte svoj profil jer se svake nedelje proglasava ime za najlepseg i najsasavijeg profila na forumu! Smile Registrujte se na Best Movie Forumu, čeka vas mnogo zanimljivih i korisnih stvari!!!

Delite | 
 

 Annie Claus is Coming to Town (2011) HDTV

Pogledaj prethodnu temu Pogledaj sledeću temu Ići dole 
AutorPoruka
Pesoholicar
Admin
Admin
avatar

Broj poruka : 1941
Points : 8778
Datum upisa : 04.07.2011
Godina : 32
Lokacija : Leskovac

PočaljiNaslov: Annie Claus is Coming to Town (2011) HDTV   Čet Dec 22, 2011 9:33 pm

Annie Claus is Coming to Town (2011) HDTV XviD-NoGRP



Kod:
General
Complete name: Annie.Claus.is.Coming.to.Town.2011.HDTV.XviD-NoGRP.avi
Format : AVI
Format/Info: Audio Video Interleave
File size: 700 MiB
Duration : 1h 23mn
Overall bit rate : 1 173 Kbps

Video
ID : 0
Format : MPEG-4 Visual
Format profile : Advanced Simple@L5
Format settings, BVOP: 2
Format settings, QPel: No
Format settings, GMC : No warppoints
Format settings, Matrix: Default (H.263)
Codec ID : XVID
Codec ID/Hint: XviD
Duration : 1h 23mn
Bit rate : 1 031 Kbps
Width: 624 pixels
Height : 352 pixels
Display aspect ratio : 16:9
Frame rate : 29.970 fps
Color space: YUV
Chroma subsampling : 4:2:0
Bit depth: 8 bits
Scan type: Progressive
Compression mode : Lossy
Bits/(Pixel*Frame) : 0.157
Stream size: 615 MiB (88%)
Writing library: XviD 63

Audio
ID : 1
Format : MPEG Audio
Format version : Version 1
Format profile : Layer 3
Codec ID : 55
Codec ID/Hint: MP3
Duration : 1h 23mn
Bit rate mode: Constant
Bit rate : 128 Kbps
Channel(s) : 2 channels
Sampling rate: 48.0 KHz
Compression mode : Lossy
Stream size: 76.3 MiB (11%)
Alignment: Split accross interleaves
Interleave, duration : 24 ms (0.72 video frame)

Kod:
http://imdb.com/title/tt1910501/

Download:
Kod:
http://www.fileserve.com/file/Tw7jVQc/
http://www.filesonic.com/file/4339675224
http://www.filejungle.com/f/4PrmSG
http://filepost.com/files/344cmema/Annie.Claus.is.Coming.HDTV.cW.rar/




_________________
[You must be registered and logged in to see this link.]
"You wanna play?"
Nazad na vrh Ići dole
Pogledaj profil korisnika http://bestmovie.serbianforum.info
 
Annie Claus is Coming to Town (2011) HDTV
Pogledaj prethodnu temu Pogledaj sledeću temu Nazad na vrh 
Strana 1 od 1
 Similar topics
-
» Godišnji horoskop za 2011
» Lavovi
» Psiho-test tobogan
» Verujete li u horoskop?
» Kuda idemo...........

Dozvole ovog foruma:Ne možete odgovarati na teme u ovom forumu
Best Movie Forum :: Filmovi :: Filmovi po kategorijama! :: + Comedy --
Skoči na: