Best Movie Forum
Registrujte se na Best Movie Forumu, čeka vas mnogo zanimljivih i korisnih stvari.

Uzivaj u druzenju,gledanju i skidanju stranih filmova i serija...mozete naci i veliki broj pc programa za download... Ucestvujte aktivno na forumu (pisite, pocnite nove teme...), jer se aktivnost nagradjuje!!!

Editujte svoj profil jer se svake nedelje proglasava ime za najlepseg i najsasavijeg profila na forumu! Smile

REGISTRACIJA je veoma brza i jednostavna, samo unesite podatke, ULOGUJTE se i uživajte......

Vaš BestMovie Tim!!!


Best Movie Forum - Filmovi, Serije, Igre...
 
PrijemKalendarGalerijaFAQ - Često Postavljana PitanjaTražiLista članovaKorisničke grupeRegistruj sePristupi
Dobrodosli na Best Movie Forum!!! Uzivaj u druzenju,gledanju i skidanju stranih filmova i serija...budite aktivni jer se aktivnost nagradjuje!!! Editujte svoj profil jer se svake nedelje proglasava ime za najlepseg i najsasavijeg profila na forumu! Smile Registrujte se na Best Movie Forumu, čeka vas mnogo zanimljivih i korisnih stvari!!!

Share | 
 

 Whats Your Number (2011) DVDRip

Pogledaj prethodnu temu Pogledaj sledeću temu Ići dole 
AutorPoruka
Pesoholicar
Admin
Admin
avatar

Broj poruka : 1941
Points : 8606
Datum upisa : 04.07.2011
Godina : 32
Lokacija : Leskovac

PočaljiNaslov: Whats Your Number (2011) DVDRip   Čet Dec 22, 2011 9:06 pm

Whats Your Number (2011) DVDRip XviD-DEFACED



Kod:
Video
ID : 0
Format : MPEG-4 Visual
Format profile : Advanced Simple@L5
Format settings, BVOP: 2
Format settings, QPel: No
Format settings, GMC : No warppoints
Format settings, Matrix: Default (MPEG)
Codec ID : XVID
Codec ID/Hint: XviD
Duration : 59mn 56s
Bit rate : 1 176 Kbps
Width: 624 pixels
Height : 336 pixels
Display aspect ratio : 1.857
Frame rate : 23.976 fps
Color space: YUV
Chroma subsampling : 4:2:0
Bit depth: 8 bits
Scan type: Progressive
Compression mode : Lossy
Bits/(Pixel*Frame) : 0.234
Stream size: 504 MiB (72%)
Writing library: XviD 1.0.3 (UTC 2004-12-20)

Audio
ID : 1
Format : AC-3
Format/Info: Audio Coding 3
Mode extension : CM (complete main)
Codec ID : 2000
Duration : 59mn 56s
Bit rate mode: Constant
Bit rate : 448 Kbps
Channel(s) : 6 channels
Channel positions: Front: L C R, Side: L R, LFE
Sampling rate: 48.0 KHz
Bit depth: 16 bits
Compression mode : Lossy
Stream size: 192 MiB (27%)
Alignment: Split accross interleaves
Interleave, duration : 42 ms (1.00 video frame)
Interleave, preload duration : 500 ms

Kod:
http://www.imdb.com/title/tt0770703/





Download:
Kod:

http://www.fileserve.com/file/uf6qv72/
http://www.fileserve.com/file/WfYtSqr/

http://www.filesonic.com/file/4330972974
http://www.filesonic.com/file/4331005054

http://www.filejungle.com/f/RBsNvn/def-wyn.2cds.cW.part1.rar
http://www.filejungle.com/f/KnwRNG/def-wyn.2cds.cW.part2.rar

http://filepost.com/files/7dc1a5f7/def-wyn.2cds.cW.part1.rar/
http://filepost.com/files/3c2fe7f3/def-wyn.2cds.cW.part2.rar/

Download Singl Link:
Kod:

http://www.fileserve.com/file/TPa6Az2/
http://www.filesonic.com/file/4331228164
http://www.filejungle.com/f/HD4zBW

_________________
[You must be registered and logged in to see this link.]
"You wanna play?"
Nazad na vrh Ići dole
Pogledaj profil korisnika http://bestmovie.serbianforum.info
 
Whats Your Number (2011) DVDRip
Pogledaj prethodnu temu Pogledaj sledeću temu Nazad na vrh 
Strana 1 od 1
 Similar topics
-
» Godišnji horoskop za 2011
» Čemer
» Lavovi
» Mirjana Matic Vujicic
» Psiho-test tobogan

Dozvole ovog foruma:Ne možete odgovarati na teme u ovom forumu
Best Movie Forum :: Filmovi :: Filmovi po kategorijama! :: + Comedy --
Skoči na: